The Secret Life of Pets 2016 dual audio 1080p Online Watch Movie

The Secret Life of Pets 2016



The secret life of animals


Genre: Animation, Comedy, Family

Quality: 720p HD-AAC TS x264

Size: 600 MB

Video: MP4 | 1280 * 544 | 900 Kbps

Audio: Bahasa Inggeris | AAC | 100 Kbps

Runtime: 83 Min

Encoder: iExTV team

Subtitle: Null

Source: Thx BiGDADDYViAN

screen shots

Click on each image to see it in full size

Greeeeet Ali Mohamed, KH Ali Ahmed Hussein

A comedy to lead the life of our pets after we worked gaanof school every day.

SEBUAHterrierbernamaMax quiet life upside down when its owner at Duke, wild, that Max has turned directly.

Director: Yarrow Cheney, Chris Renaud

Author Cinco Paul, Ken Daurio

Stars: Louis, Eric Stonestreet, Kevin Hart

Genre: Animation | comedy | family

Country: Japan | United States of America

Bahasa Inggeris

thx Hive

CM8 Doing It Right The First Time


Video: 1080p HDCAM (CPG / father)

Audio: Bahasa Inggeris Direct Line (CPG / father)

love thanks


Yep, I was about jikasesuatu remain, and these needa lot of work

Cam technically perfect quality damned

First minute intro OOS henchmen 12-45 seconds of their time in different frames,

5 minutes in theire is a 2-minute video loop, wtf

good video experience some networking problems.

tend video


keep perspective

720p lean – look sharper and waybetter

The second video image gewistinterlaced

Deleted video looping

tetapframerate to intro video

fixed brightness, contrast, RGB connections, add sharpness


audio cleared

deleted Cinavia

Quality tested and optimized for 4K TV 75 looks perfect.

got excellent and will make up my retail


Video: 1280×672 @bitrate 4000-8000

Audio: Bahasa Inggeris AC3 Stereo Direct Line

Example: yes inclusive


Full name:

Format: Matroska

Format version: Version 2

File size: MiB

23mn 1 hours:

In keseluruhanMode bit rate: Variable

Overall bit rate: 4428 Kbps

Date coded: 21/07/2016 23:09:37 UTC

applicationwriting: mkvmerge (Kenya Kane “) was built on May 27, 2012 16:44:04

library writes: libebml + libmatroska


ID: 1

Format: AVC

Format / Info: Advanced Video Codec

Format profile: / * * /

format settings, CABAC: Yes

format settings, reframes: 4 frames

format settings, GOP: M = 4, N = 33

muxing mode: header stripping

Codec ID: V_MPEG4 / ISO / AVC

23mn 1 hours:

Bit rate mode: Variable

Bit rate: 3892kbps

The maximum bit rate: 8000 Kbps

Width: 1280 pixels

Height: 672 pixels

The aspect ratio of the screen:

modFrame rate: Constant

fps frame rate

Standard: PAL

Color Space: YUV

Chroma subsampling: 4: 2: 0

Bit Depth: 8 bit

Scan type: Progressive

Bits / (Pixel * Frame):

Stream size: MiB (88%)

Bahasa Inggeris

Default: Yes

Force: None

Early color:

transfer characteristics:

the coefficient matrix:

Color gamut: Limited


ID: 2

Format: AC-3

Format / Info: Coding Audio3

Fashion extension: CM (primary packaging)

format settings, endianness: General

muxing mode: header stripping

Codec ID: A_AC3

23mn 1 hours:

rate modeBit: Constant

Bit rate: 448 Kbps

Channel (s): 2 channels

Channel positions: Front: LR

Sampling rate: KHz

Bit depth: 16 bit

Compression mode: Lossy

Stream size: 267 MiB (10%)

Bahasa Inggeris

Default: Yes

Force: None

  1. The Secret Life of Pets 2016 full online movie

Submit a Comment

Your email address will not be published. Required fields are marked *